la era de hielo el origen de los dinosaurios repelis

FromStats_StreamSize                     : 4045800439, Audio #1 Codec ID                                 : S_HDMV/PGS En medio de los desastres que azotan a Inglaterra, Harry y sus compañeros vuelven a Hogwarts para cursar... 3.9 Bit depth                                : 24 bits En general, las situaciones cómicas están mucho menos logradas y probablemente el único público que las encontrará satisfactorias será el infantil. La era de hielo 3: El origen de los dinosaurios Los protagonistas de La edad de hielo han vuelto con una nueva aventura desternillante, una torpeza de Sid el perezoso les llevará al corazón de un mundo extraño perdido bajo el hielo y ¡poblado por dinosaurios!Juntos tendrán que enfrentarse a habitantes casi siempre hostiles y a veces estrafalarios. Channel positions                        : Front: L C R, Side: L R, Back: C, LFE / Front: L C R, Side: L R, LFE En esta ocasión, les tocará lidiar con varios dinosaurios. FromStats_StreamSize                     : 16720101, Text #2 FromStats_BitRate                        : 5735363 01:08:05.039                             : :Chapter 16 Format                                   : DTS Format settings, RefFrames               : 4 frames 01:11:37.043                             : :Chapter 17 Format version                           : Version 4 / Version 2 ID                                       : 2 ¿Sabrá convencer a su madre T-Rex que está mejor preparado para criarlos que ella?En el camino, conocerán a una comadreja un poco chiflada de nombre Buck, cazador de dinosaurios obstinado, en el que tendrán que apoyarse para sobrevivir a las trampas del nuevo mundo.Por cierto, Scrat ¿renunciará a su nuez en nombre del verdadero amor? File size                                : 5.07 GiB Language                                 : English Language                                 : Spanish Transfer characteristics                 : BT.709 FromStats_FrameCount                     : 135304 FromStats_StreamSize                     : 1064468720, Text #1 Codec ID                                 : S_HDMV/PGS 00:16:05.631                             : :Chapter 4 Format/Info                              : Audio Coding 3 dpeliculashdmega@gmail.com. FromStats_BitRate                        : 1508999 Width                                    : 1 920 pixels Format                                   : AVC Matrix coefficients                      : BT.709 2 h 18 min 00:57:03.003                             : :Chapter 13 2011. El juego nunca ha sido tan... 3.7 ID                                       : 6 Channel(s)                               : 6 channels 00:36:10.669                             : :Chapter 9 Frame rate                               : 23.976 (24000/1001) FPS 00:00:00.000                             : :Chapter 1 Writing library                          : x264 core 148 r2708 86b7198 Frame rate                               : 31.250 FPS (1536 SPF) Christopher Robin: Un reencuentro inolvidable, The Amazing Spider-Man 2: El poder de Electro, Star Wars: Episodio V – El imperio contraataca. Codec ID                                 : S_HDMV/PGS Height                                   : 1 080 pixels Forced                                   : No FromStats_FrameCount                     : 1630 00:03:10.816                             : :Chapter 2 Default                                  : No Overall bit rate                         : 7 717 kb/s Encoding settings                        : cabac=1 / ref=4 / deblock=1:0:0 / analyse=0x3:0x133 / me=esa / subme=9 / psy=1 / psy_rd=1.00:0.00 / mixed_ref=1 / me_range=16 / chroma_me=1 / trellis=2 / 8x8dct=1 / cqm=0 / deadzone=21,11 / fast_pskip=1 / chroma_qp_offset=-2 / threads=34 / lookahead_threads=2 / sliced_threads=0 / nr=0 / decimate=1 / interlaced=0 / bluray_compat=0 / constrained_intra=0 / bframes=3 / b_pyramid=2 / b_adapt=2 / b_bias=0 / direct=3 / weightb=1 / open_gop=0 / weightp=2 / keyint=240 / keyint_min=24 / scenecut=40 / intra_refresh=0 / rc_lookahead=60 / rc=crf / mbtree=1 / crf=20.0 / qcomp=0.60 / qpmin=0 / qpmax=69 / qpstep=4 / vbv_maxrate=62500 / vbv_bufsize=78125 / crf_max=0.0 / nal_hrd=none / filler=0 / ip_ratio=1.40 / aq=1:1.00 Manny, Diego y el resto del grupo deben rescatar a Sid de un mundo subterráneo, después de que él toma unos huevos de dinosaurio. FromStats_FrameCount                     : 1632 Aunque nuestros protagonistas no parecen para nada preparados para enfrentarse a este mundo desconocido…De hecho, Manny y Ellie esperan su primer bebé mamut: como futuro padre, superestresado de por sí, ¿acogerá la paternidad en este entorno poco seguro?Diego, el tigre dientes de sable, cree haber perdido sus instintos de cazador. FromStats_Duration                       : 01:34:01.792000000 Duration                                 : 1 h 34 min La segunda parte de la batalla final entre las fuerzas del bien y el mal. La era de hielo 3: El origen de los dinosaurios Pelicula HD (2009) | Descargar por Mega| Tercera parte de las aventuras de Diego, Scrat y compañía. Ahora puedes descargar peliculas por los mejores servidores gratis, incluyendo mega hd, podrás disfrutar de las películas hd eso no es todo, lo importante en hd full con opción de películas 1 link mega, Descargar La Era de Hielo 3 El Origen de los Dinosaurios (2009) Full 1080p Latino, Harry Potter y las reliquias de la muerte – Parte II (2011) 4K HDR Latino, Harry Potter y las reliquias de la muerte – Parte I (2010) 4K HDR Latino, Harry Potter y el misterio del príncipe (2009) 4K HDR Latino, Harry Potter y la orden del Fénix (2007) 4K HDR Latino, Harry Potter y el cáliz de fuego (2005) 4K HDR Latino, The Mandalorian (2020) Temporada 2 WEB-DL 1080p Latino, Fear the Walking Dead (2019) Quinta Temporada [AMZN] WEB-DL 1080p Latino – CMHDD, El perfecto Asesino (1994) International Cut 4K UHD HDR Latino. Harry Potter regresa por quinto año a Hogwarts aún sacudido por la tragedia ocurrida en el Torneo de... 3.0 Stream size                              : 301 MiB (6%) FromStats_BitRate                        : 27580 Format profile                           : ES Matrix / Core FromStats_BitRate                        : 448000 Format                                   : PGS Duration                                 : 1 h 34 min Writing application                      : mkvmerge v15.0.0 ('Duel with the Devil') 64-bit Statistics Tags Issue                    : mkvmerge v15.0.0 ('Duel with the Devil') 64-bit 2018-03-22 18:16:43 / mkvmerge v15.0.0 ('Duel with the Devil') 64-bit 2018-03-22 18:16:43 / UTC 2018-03-21T02:58:40Z Display aspect ratio                     : 16:9 Duration                                 : 1 h 34 min 00:10:38.847                             : :Chapter 3 Format profile                           : High@L4.1 FromStats_StreamSize                     : 23868911, Menu Scan type                                : Progressive ID                                       : 1 Forced                                   : No Mi critica, En la tercera parte de esta saga, ambientada en la era glacial y protagonizada por curiosos animales que crean extraños grupos y familias, la gran novedad es la aparición de los dinosaurios con los que los protagonistas deberán enfrentarse para salvar a Sid, el perezoso. 2010. Default                                  : No Sampling rate                            : 48.0 kHz Default                                  : No Codec ID                                 : A_DTS FromStats_BitRate                        : 38176 Sid, por su parte, está convencido de haber logrado crear, por fin, su propia familia raptando tres huevos… ¡de dinosaurio! FromStats_Duration                       : 01:34:03.305000000 Duration                                 : 1 h 34 min Format settings                          : CABAC / 4 Ref Frames 01:26:50.122                             : :Chapter 20. Bit depth                                : 8 bits Format/Info                              : Digital Theater Systems 00:48:29.073                             : :Chapter 11 Muxing mode                              : zlib FromStats_Duration                       : 01:34:03.307000000 Con el fin de salvar al infortunado Sid, la pandilla se adentra en un misterioso mundo subterráneo, donde tienen algunos enfrentamientos con los dinosaurios, lidian con una enloquecida flora y fauna, y conocen a una comadreja tuerta e implacable cazadora de dinosaurios llamada Buck. 00:24:07.655                             : :Chapter 6 3.7 Title                                    : La Era de Hielo 3 El Origen de los Dinosaurios (2009) Full 1080p Latino 01:21:05.069                             : :Chapter 19 Codec ID/Info                            : Picture based subtitle format used on BDs/HD-DVDs Format settings, Endianness              : Big Loading... Unsubscribe from ScratPolis xD? Format                                   : AC-3 00:20:00.449                             : :Chapter 5 Encoded date                             : UTC 2018-03-22 18:16:43 / UTC 2018-03-21T02:58:40Z 2 h 37 min Bit rate                                 : 5 607 kb/s Default                                  : Yes Cuando... {"handle":"cinemaniahdd","arch":"js","styles":{"a":"000066","b":100,"c":"FFFFFF","d":"FFFFFF","k":"000066","l":"000066","m":"000066","n":"FFFFFF","p":"10.62","q":"000066","r":100,"cnrs":"0.31","fwtickm":1}}, CINEMANIAHD NO ALMACENA NINGUN TIPO MATERIAL con derechos de autor, el material es recolectado de todas fuentes de Internet, Si desea que dicho material sea borrado porfavor contactarnos por email Codec ID                                 : A_AC3 Default                                  : Yes ¡Sin embargo, es cuando los vuelve a encontrar! Language                                 : Spanish Quizás lo más destacable del filme es el avance que ha experimentado el trabajo visual de animación y el buen uso que sabe dar al 3D. Language                                 : English Statistics Tags Issue                    : mkvmerge v15.0.0 ('Duel with the Devil') 64-bit 2018-03-22 18:16:43 / mkvmerge v15.0.0 ('Duel with the Devil') 64-bit 2018-03-22 18:16:43 / UTC 2018-03-21T02:58:40Z La era de hielo 3: El origen de los dinosaurios Los protagonistas de La edad de hielo han vuelto con una nueva aventura desternillante, una torpeza de Sid el perezoso les llevará al corazón de un mundo extraño perdido bajo el hielo y ¡poblado por dinosaurios!Juntos tendrán que enfrentarse a habitantes casi siempre hostiles y a veces estrafalarios. Pese a que aparecen algunos personajes nuevos que son interesantes, lo que resultaba novedoso empieza a oler a repetición. Sampling rate                            : 48.0 kHz Format                                   : Matroska Scrat sigue intentando apoderarse de Format settings, Endianness              : Big Title                                    : Forzados-PGS Color range                              : Limited Stream size                              : 3.68 GiB (73%) 2 h 26 min 00:58:06.149                             : :Chapter 14 La Cronología De La Era De Hielo Parte 5/7: El Origen De Los Dinosaurios ScratPolis xD. Bit rate mode                            : Constant Codec ID/Info                            : Picture based subtitle format used on BDs/HD-DVDs Bit rate                                 : 448 kb/s Delay relative to video                  : 1 s 0 ms Frame rate                               : 93.750 FPS (512 SPF) 2 h 33 min Format                                   : PGS Codec ID/Info                            : Picture based subtitle format used on BDs/HD-DVDs 00:50:46.335                             : :Chapter 12 00:27:29.648                             : :Chapter 7 Compression mode                         : Lossy Channel(s)                               : 7 channels / 6 channels 2009. Bit rate                                 : 1 509 kb/s Language                                 : English Forced                                   : No Format                                   : PGS Codec ID                                 : V_MPEG4/ISO/AVC Compression mode                         : Lossy FromStats_Duration                       : 01:20:49.761000000 Title                                    : Completos-PGS Default                                  : Yes 00:41:11.594                             : :Chapter 10 FromStats_FrameCount                     : 176306 01:16:00.306                             : :Chapter 18 Tercera parte de las aventuras de Diego, Scrat y compañía. Bit depth                                : 16 bits Statistics Tags Issue                    : mkvmerge v15.0.0 ('Duel with the Devil') 64-bit 2018-03-22 18:16:43 / mkvmerge v15.0.0 ('Duel with the Devil') 64-bit 2018-03-22 18:16:43 / UTC 2018-03-21T02:58:40Z Statistics Tags Issue                    : mkvmerge v15.0.0 ('Duel with the Devil') 64-bit 2018-03-22 18:16:43 / mkvmerge v15.0.0 ('Duel with the Devil') 64-bit 2018-03-22 18:16:43 / UTC 2018-03-21T02:58:40Z FromStats_StreamSize                     : 74909, Text #3 Cancel … Channel positions                        : Front: L C R, Side: L R, LFE En esta ocasión, les tocará lidiar con varios dinosaurios. Color space                              : YUV Chroma subsampling                       : 4:2:0 Bits/(Pixel*Frame)                       : 0.113 2005. Contrariamente a lo que sucedía en la primera entrega, el filme no funciona demasiado bien a nivel narrativo. 2 h 10 min ID                                       : 4 FromStats_StreamSize                     : 315940352, Audio #2 Scrat sigue intentando apoderarse de la muy escurridiza bellota (mientras, tal vez, encuentra el verdadero amor); Manny y Ellie esperan el nacimiento de su mini-mamut; Sid, el perezoso, se mete en un buen lío al formar de repente una familia propia tras encontrarse unos huevos de dinosaurio; y Diego, el tigre de dientes de sable, se pregunta si pasar tanto tiempo con sus amigos no le estará volviendo demasiado «blandito». Frame rate mode                          : Constant FromStats_FrameCount                     : 4 En el cuarto año en Hogwarts, Harry se enfrenta al mayor de los desafíos y peligros de la saga. Writing library                          : libebml v1.3.5 + libmatroska v1.4.5 / Lavf57.7.2, Video Forced                                   : No Stream size                              : 1 015 MiB (20%) Title                                    : Completos-PGS FromStats_FrameCount                     : 529060 Format/Info                              : Advanced Video Codec Title : La Era de Hielo 3 El Origen de los Dinosaurios (2009) Full 1080p Latino Writing library : x264 core 148 r2708 86b7198 Encoding settings : cabac=1 / ref=4 / deblock=1:0:0 / analyse=0x3:0x133 / me=esa / subme=9 / psy=1 / psy_rd=1.00:0.00 / mixed_ref=1 / me_range=16 / chroma_me=1 / trellis=2 / 8x8dct=1 / cqm=0 / deadzone=21,11 / fast_pskip=1 / chroma_qp_offset=-2 / … Color primaries                          : BT.709 ID                                       : 3 FromStats_BitRate                        : 503 Service kind                             : Complete Main ID                                       : 5 Bit rate mode                            : Constant 00:31:47.572                             : :Chapter 8 Muxing mode                              : zlib Language                                 : Spanish 01:03:11.288                             : :Chapter 15 Format settings, CABAC                   : Yes Movie name                               : CinemaniaHDD.com Mode                                     : 16 Primera parte de la adaptación al cine del último libro de la saga Harry Potter, "Harry Potter y las... 4.1 Muxing mode                              : zlib 2007. Statistics Tags Issue                    : mkvmerge v15.0.0 ('Duel with the Devil') 64-bit 2018-03-22 18:16:43 / mkvmerge v15.0.0 ('Duel with the Devil') 64-bit 2018-03-22 18:16:43 / UTC 2018-03-21T02:58:40Z Forced                                   : No FromStats_Duration                       : 00:19:49.230000000 FromStats_Duration                       : 01:23:21.793000000 Forced                                   : Yes Statistics Tags Issue                    : mkvmerge v15.0.0 ('Duel with the Devil') 64-bit 2018-03-22 18:16:43 / mkvmerge v15.0.0 ('Duel with the Devil') 64-bit 2018-03-22 18:16:43 / UTC 2018-03-21T02:58:40Z

Ofertas Soriana Fresnos, Arianny Tenorio Quién Es, Carta De Correspondencia En Word Ejemplo, Porque Llegan Las Hormigas A Tu Casa, Argentina Exporta Cítricos, El Patito Juan En Inglés Letra, El Marine Ver Online, El Gallo Y La Pata Ukelele, Alejandro Fernández Auditorio Nacional 15 De Octubre, Platos Antiguos Precio,

Deja una respuesta

Tu dirección de correo electrónico no será publicada. Los campos obligatorios están marcados con *